ddr WWE The Walking Dead etrg 2018 ITA GREYS ANATOMY The flash ethd the last ship hindi crazy rich asians supernatural arrow the gifted S02e06 it legends of tomorrow Manifest The Purge the walking dead s09e05 The Big Bang Theory The Good Doctor S02E06 mission impossible Fallout dtone Star Trek discovery complete solo recordings pires ncis Game Of Thrones the predator 2018 movies big bang theory Ettv The Good Doctor 0 empire lethal weapon 2160p ita flash bbc beatles 2018 the gifted evo lucifer Legends Of Tomorrow S04E03 mayans survivor DTONE helen keller Supergirl etmovies star trek discovery español ita 2018 Incredibles 2 mission impossible fgt great british bake off s09e10 venom Vikings diners dives 15 arrow español gotham 1080p YIFY titans Outlander nfl manifest S01E06 south park BULL 
Warning! Do not Download Without a VPN!
Your IP Address is .   Location is
Download and surf securely, stream unlimited and protect your personal data!
We strongly recommend using SpyOFF VPN!
Become Anonymous with SpyOFF
ETTV Recommended TV Shows
Greys.Anatomy.S15E07.HDTV.x264-KILLERS[ettv] torrent
American.Horror.Story.S08E09.WEBRip.x264-TBS[ettv] torrent
Chicago.PD.S06E07.HDTV.x264-SVA[ettv] torrent
SEAL.Team.S02E06.WEBRip.x264-PBS[ettv] torrent

ETTV Recommended Xvid
Mission.Impossible.Fallout.2018.HDRip.XViD.AC3-ETRG torrent
Watch.If.You.Dare.2018.HDRip.XviD.AC3-EVO torrent
Temple.2018.HDRip.XviD.AC3-EVO torrent
Zoe.2018.BRRip.XviD.AC3-EVO torrent

ETTV Recommended HD
Crazy.Rich.Asians.2018.1080p.WEB-DL.DD5.1.H264-CMRG[EtHD] torrent
Alone.We.Fight.2018.1080p.WEB-DL.H264.AAC-EVO[EtHD] torrent
Dog.Days.2018.1080p.WEB-DL.H264.AC3-EVO[EtHD] torrent
Mission.Impossible.Fallout.2018.1080p.WEB-DL.DD5.1.H264-CMRG[EtHD] torrent

ETTV Recommended UHD
Men.in.Black.2.2002.Multi.UHD.2160p.Bluray.x265.HDR.Atmos.7.1-DTOne torrent
Men.In.Black.3.2012.Multi.UHD.2160p.Bluray.x265.HDR.Atmos.7.1-DTOne torrent
Saving.Private.Ryan.1998.Multi.UHD.2160p.BluRay.x265.HDR.Atmos.7.1-DTOne torrent
Incredibles.2.2018.Multi.UHD.2160p.BluRay.Remux.HEVC.HDR.Atmos.7.1-DTOne torrent

ETTV Recommended Cam
Replicas 2018.HDCAM.x264.AC3-ETRG torrent
Bohemian Rhapsody 2018 HDCAM.XViD.AC3-ETRG torrent
The Nutcracker and the Four Realms 2018 HDCAM x264 AC3-ETRG torrent
The.House.with.a.Clock.in.Its.Walls.2018.NEW HDCAM.XViD.AC3-ETRG torrent

ETTV Recommended Foreign
NOTA (2018) [TAMIL(HQ)+TELUGU - 720p - HDRip - x264 - AAC - ESub - 2GB] - MAZE torrent
Street Lights (2018) [MALAYALAM - 720p - WEB HDRip - x264 - AAC - ESub - 2GB] - MAZE torrent
Qismat.(2018).1-3.Desi.Pre.Rip.x264.AAC.2.0-DTOne torrent
Co Co Kokila (2018) 1080p WEB-HD AVC AAC-DTOne torrent

Social


Download Torrent "Karenjit Kaur Season 2 S02 1080p Dual Audio [Hindi-English] ESUBS V2 UNTOUC..."

IMDB Details
Description:

N/A

Genre:

N/A

Download Torrent (Magnet)
Seeds: 449
Leechers: 955
Completed: 1,547 
Last Checked: 18-09-2018 12:19:59


Details
Title:Karenjit Kaur Season 2 S02 1080p Dual Audio [Hindi-English] ESUBS V2 UNTOUC...
Description:
Karenjit Kaur Season 2 S02 1080p Dual Audio [Hindi-English] ESUBS V2 UNTOUCHED WEB-DL FLASH KartiKing







[b]Mediainfo :-


CONTAINS ALL 6 EPISODES OF SEASON 2 in PROPER UNTOUCHED DUAL AUDIO [HINDI-ENGLISH] with ESUBS !

General
Format                                   : Matroska
Format version                           : Version 4
File size                                : 428 MiB
Duration                                 : 20 min 9 s
Overall bit rate                         : 2 969 kb/s

Video
ID                                       : 1
Format                                   : AVC
Format/Info                              : Advanced Video Codec
Format profile                           : [email protected]
Format settings                          : CABAC / 4 Ref Frames
Format settings, CABAC                   : Yes
Format settings, RefFrames               : 4 frames
Codec ID                                 : V_MPEG4/ISO/AVC
Duration                                 : 20 min 9 s
Bit rate                                 : 2 837 kb/s
Nominal bit rate                         : 3 000 kb/s
Width                                    : 1 920 pixels
Height                                   : 1 080 pixels
Display aspect ratio                     : 16:9
Frame rate mode                          : Constant
Frame rate                               : 25.000 FPS
Color space                              : YUV
Chroma subsampling                       : 4:2:0
Bit depth                                : 8 bits
Scan type                                : Progressive
Bits/(Pixel*Frame)                       : 0.055
Stream size                              : 409 MiB (96%)

Audio #1
ID                                       : 2
Format                                   : AAC LC
Format/Info                              : Advanced Audio Codec Low Complexity
Codec ID                                 : A_AAC-2
Duration                                 : 20 min 9 s
Bit rate                                 : 64.8 kb/s
Channel(s)                               : 2 channels
Channel layout                           : L R
Sampling rate                            : 48.0 kHz
Frame rate                               : 46.875 FPS (1024 SPF)
Compression mode                         : Lossy
Stream size                              : 9.34 MiB (2%)
Language                                 : English
Default                                  : Yes
Forced                                   : Yes

Audio #2
ID                                       : 4
Format                                   : AAC LC
Format/Info                              : Advanced Audio Codec Low Complexity
Codec ID                                 : A_AAC-2
Duration                                 : 20 min 9 s
Bit rate                                 : 64.3 kb/s
Channel(s)                               : 2 channels
Channel layout                           : L R
Sampling rate                            : 48.0 kHz
Frame rate                               : 46.875 FPS (1024 SPF)
Compression mode                         : Lossy
Stream size                              : 9.28 MiB (2%)
Language                                 : Hindi
Default                                  : No
Forced                                   : No

Text
ID                                       : 3
Format                                   : UTF-8
Codec ID                                 : S_TEXT/UTF8
Codec ID/Info                            : UTF-8 Plain Text
Duration                                 : 18 min 50 s
Bit rate                                 : 71 b/s
Count of elements                        : 312
Stream size                              : 9.89 KiB (0%)
Language                                 : English
Default                                  : Yes
Forced                                   : Yes

SCREENSHOTS :-
[/b]







[b]KartiKing
[/b]


Category:TV > TV Packs
Lang:English  English
Total Size:2.83 GB
Info Hash:cf30ae238b6e7b3bbecdc4cda92fa789ba533952
Added By:KartiKing
Date Added:18-09-2018 12:19:52

  

Files

File List: 
 File Size
Karenjit Kaur S02E01 Beat around the Bush 1080p WEB-DL Hindi Eng FLASH KartiKing.mkv428 MB
Karenjit Kaur S02E02 Guilty of Doing It our way 1080p WEB-DL Hindi Eng FLASH KartiKing.mkv556 MB
Karenjit Kaur S02E03 Is It Happily Ever After 1080p WEB-DL Hindi Eng FLASH KartiKing.mkv463 MB
Karenjit Kaur S02E04 The Princess and The Frogs 1080p WEB-DL Hindi Eng FLASH KartiKing.mkv493 MB
Karenjit Kaur S02E05 The Last Wish 1080p WEB-DL Hindi Eng FLASH KartiKing.mkv429 MB
Karenjit Kaur S02E06 Time to Say Goodbye 1080p WEB-DL Hindi Eng FLASH KartiKing.mkv525 MB



Loading...
Comments

There are currently no comments. Be the first one to write something !

Disclaimer: None of the files shown here are actually hosted or transmitted by this server. The links are provided solely by this site's users. The site moderation is also a service provided by the site's users. The administrator of this site (ettv.tv) cannot be held responsible for what its users post, or any other actions of its users. You may not use this site to distribute or download any material when you do not have the legal rights to do so. It is your own responsibility to adhere to these terms.

Sitemap